Enigma Mcmxc Flac





Listen to your purchases on our apps. - Principles Of Lust – C- Sa…. D (1990) FLAC 24 bit /192kHz Artist: Enigma Title: : MCMXC a. The whispery, haunting vocals heard on Michael Cretu's Enigma albums MCMXC A. Single by Enigma. Название: MCMXC a. Gregorian: A2b. 5MB Albums\1990 - MCMXC a. (1990) Enigma - MCMXC AD(1990)FLAC 2. org 227 MB 2014-11-09 2 0. The Voice & The Snake B3. Electronic. 1-1 The Voice Of Enigma 2:211-2 Principles Of Lust: Sadeness / Find Love / Sadeness (Reprise) 11:431-3. [LTD] (2016) [FLAC 24-96] 2 years : audio: 16: 786 MB: 16: 0: The Who - Who's Next (2014 Deluxe) [24-96 HD FLAC] 2 years : audio: 49: 3. 2MHz/256fs Download DSD (Single Rate) 2. Browse and Download any torrent from the user 77ausy. Shinnobu - The Enigma VIII (What Once It Was) (2019) FLAC. Enigma – MCMXC a. Download: Category: audio Total Files: 16 Total Size: 786. The Die Is Cast. Going against the grain. 0451欧美新世纪英格玛enigma. "The Limited Edition" Album by Enigma are released in 1991 year, you can download Enigma songs from HirezBox an get unforgettable pleasure by listening music created by Enigma. Take a look at some of the most popular covers of this song. February 2007, 19:46 for CDEnigma / D*Emotion Project. Download newage album by Enigma - MCMXC a. is the first studio album by the German music project Enigma, headed by Romanian-German musician Michael Cretu. The first was The Cross of Changes (1993), which incorporated tribal and ethnic influences and sold over 8 million copies worldwide, followed by Le Roi est mort, vive le Roi!. cue) VinylRip (24/96) Length: 40:11 min Tracks: 7 Total Size: 1,64 (+5%) WebSite: Of. 9M ·英语 ·2014-07-05. Cretu is both the composer and the producer of the project. Jun 18, · But Enigma's MCMXC A. Principles of Lust: Sadeness/Find Love/Sadeness [Reprise] (60 Releases) - 1990-2016, FLAC. wav Peak level 99. Upload, share, search and download for free. Callas Went Away 4:28 4. Enigma - MCMXC a. miércoles, 10 de agosto de 2016 ENIGMA - Discografia completa (MEGA) 320. D 1990 Flac 24 Bit 96KHz Vinyl Размер: 859. - скачать бесплатно, без регистрации, смотреть онлайн. 33 KB] Enigma - Enigma Trilogy - Mcmxc A. - 3 download flac. Предлагаем настоящим ценителям качественной музыки FLAC(24bit) треки с лимитированного издания SACD альбома Enigma "MCMXC a. [LP] (1990) [Vinyl Rip, Hi-Res] Artist: Enigma Title: MCMXC a. Enigma - Knocking On Forbidden Doors. Music video by The Beatles performing Come Together. [Limited Edition] Released: 1990/2016 Style: New Age, Ambient, Electronic RAR Size: 1. Uploaded 11-24 2013, Size 687. Lea DeLaria: Play It Cool (2001) FLAC; Claus Ogerman And His Orchestra - A Salute To Sam Cooke (2016) [Hi-Res. _》2016-1990(LTD)[24bit_96khz_FLAC无损] 无论你身处在世界什么地方,都可能听到过这样的声音:一种自然的美国式的圣歌,一种通过西方流行音乐节奏体现出来的遥远的的非洲部落或严肃的的宗教的和声。 这就是“谜”的音乐。. 8MHz/64fs Download FLAC Downloads FLAC 176kHz/24bit Download FLAC 192kHz/24bit Download FLAC 352kHz. OK, I Understand. 16 Mb) Enigma - MCMXC A. Check out The Platinum Collection by Enigma on Amazon Music. "The Limited Edition" MCMXC a. is a concept album created by the musical project Enigma, spearheaded by Michael Cretu. on Discogs. 1993 - touch in the night 17:40 flac 859 kb/s 112 mb 1994 - DJ SPECIAL MEGA MIX 15:39 FLAC 966 KB/S 109 MB 1994 - EVERY MOVE, EVERY TOUCH 20:36 APE 982 KB/S 145 MB. D [1994] Enigma - The Cross of Changes [1996] Enigma - Le Roi Est Mort, Vive Le Roi!. cue) Quality: lossless Covers. Credo - Чудная долина (2002) Рейтинг: 9,8 из 10: Supermax - 15 albums (11CD) (1977) Рейтинг: 9,7 из 10: Dire Straits - On Every Street (1991) Рейтинг: 9,7 из 10: Enigma MCMXC a. Orchester Claudius Alzner. Album Name Hit and Run. 0 % Test CRC 57E4271B Copy CRC 57E4271B Copy OK No errors occurred AccurateRip summary. (Limited Edition) 1993 - The Cross Of Changes 1994 - Enigma 2: The Cross Of Changes (Limited Edition) 1996 - Le Roi Est Mort, Vive Le Roi! 2000 - The Screen Behind the Mirror 2003 - Voyageur 2006 - A Posteriori 2008 - Seven Lives Many Faces. Enigma followed MCMXC a. Enigma - MCMXC a. 0) 1 Bit / 2,8 MHz (ISO) + FLAC 24 bit / 96 kHz (Tracks) Artist: Enigma Title: MCMXC a. (1991) Enigma - The Rivers Of Belief(1991) 7. 9M ·英语 ·2014-07-05. rar百度云,德国高级音响协会示范CD. Открывайте новую музыку каждый день. 1990 (2018) [Limited Red Translucent Edition, 24bit/192kHz, Vinyl Rip] Year: 2018 Genre: Electronic Audio Source: LP Audio Codec: Flac Rip Type: image +. 19 MB; flac; 320kbps; 0; 2019-12-15T02:30:57Z; Twitter Facebook Google+ Reddit; File Information. Enigma - MCMXC A. D 1993 - Enigma 2 - The Cross Of Changes 1996 - Le Roi Est Mort Vive Le Roi 2000 - The Screen Behind The Mirror 2003 - Voyageur 2006 - A Posteriori 2008 - Seven Lives Many Faces. D (The Limited Edition) (01 01. (FLAC) Type: Audio > FLAC Files: 7 Size: 228. 67 Mb) Enigma - MCMXC A. On sale now 24 Nights Eric Clapton. (Limited Edition, Numbered) - 1990 2016[SACD-R][OF]1. 95 MB; 1991 - MCMXC a. Enigma - MCMXC A. - 3 download flac. torrent Enigma - Mea Culpa Part II (45T Maxi Single) [Vinyl Rip 24 bit. 2G Enigma Discography (1990-2013) [Mp3]7. Preview MCMXC a. Enigma - Sadeness Part I ['90 - EU - CDM] | Classics Retro. Download surround and lossless music | DVD-Audio, DTS-CD, SACD, Audio-DVD, DTS 5. _》2016-1990(LTD)[24bit_96khz_FLAC无损] 无论你身处在世界什么地方,都可能听到过这样的声音:一种自然的美国式的圣歌,一种通过西方流行音乐节奏体现出来的遥远的的非洲部落或严肃的的宗教的和声。. The Limited Edition (1991) EAC | Flac(Image) + Cue + Log & MP3 CBR 320Kbps Virgin Schallplatten, 262 029 | ~ 375 or 142 Mb | Scans(png) -> 145 Mb New Age / Ambient / Electronic Michael Crétu's attempt at fusing everything from easy listening sex music and hip-hop rhythms to centuries-old Gregorian chants couldn't have been more designed to tweak the nose of high art, a. Enigma – MCMXC anno Domini 1990 Enigma - The Rivers Of Belief (Remixes 45rpm) 1991 Gregorian - So Sad 1991 Enigma - Sadeness Part I 1990 Enigma - Mea Culpa Part II 1991 Enigma - Beyond The Invisible / Light Of Your Smile (1996 USA 12" Promo) 1996 Имя исполнителя/ группы: Enigma, Gregorian. Enigma - MCMXC a. Enigma - Back To The Rivers Of Belief - Way To Eternity - Hallelujah - The Rivers Of Belief. (1990) FLAC - Бесплатно и без регистрации!. Music video by The Beatles performing Come Together. Type Album. Download No Reply - Come Together FLAC album free. flac Enigma - Дискография Формат: FLAC, tracks, lossless Год выпуска: 1990-2009 Страна: Germany. The Colours Of Enigma (2018) [24bit Vinyl Rip] for free on our site ✅Flac Quality ✅Save Audio in 1 Click ✅Wide Choice of Songs and Albums ➠Enter the website right now!. Enigma - Love Sensuality Devotion (Greatest Hits) [2001] only1joe FLAC-EAC. org 227 MB 2014-11-09 2 0. High quality Enigma music downloads from 7digital United Kingdom. Enigma / MCMXC a. (1990) FLAC - Бесплатно и без регистрации!. The Colours Of Enigma (2018) [FLAC 192 kHz/24 Bit] Dodał: jacek35. Principles Of Lust 11:44 2a Sadeness 2b Find Love 2c Sadeness (Reprise) 3. Enigma - Knocking On Forbidden Doors. Enigma - MCMXC A. D 1993 - Enigma 2 - The Cross Of Changes 1996 - Le Roi Est Mort Vive Le Roi 2000 - The Screen Behind The Mirror 2003 - Voyageur 2006 - A Posteriori 2008 - Seven Lives Many Faces. One of the most popular projects using the following formula, was the project ERA. Download Enigma - 19 Singles, 7 Albums, 6 Compilations (1990-2009) torrent or any other torrent from the Audio FLAC. Come Together, by The Beatles, has been covered in many ways by various bands. Track List: 01. Music video by The Beatles performing Come Together. Cretu is both the composer and the producer of the project. Enigma英格玛_-_《MCMXC_a. (1990) [SACD] (2016 Remaster ISO) 1. Enigma - MCMXC a. Enigma – MCMXC anno Domini 1990, Gregorian - So Sad 1991, BONYS GREGORIAN '1991' - So Sad - YouTube Gregorian - Sadisfaction Lyrics and Tracklist | Genius. flac 24,79 Мб Enigma/Album/1990 - MCMXC a. 320kbps MP3 + 320kbps M4A. Enigma - The Cross Of Changes DSD LP. CD1 - MCMXC a. It was released on 10 December 1990 by Virgin Records in the United Kingdom, and on 28 January 1991 by Charisma Records in the United States. just comment about the rip quality. 2016 ॐ - Duration: 1:14:33. "The Voice of Enigma" (Curly MC) - 2:21 https. Tracklist: 01. - Principles Of Lust – B- Find Love 04. 类型 名称 大小 上传时间 人气 复制; Enigma V - Dream On - 2000, FLAC (tracks+. net Free lossless and surround music download. Enigma - Boum Boum flac download. 01 - The Voice Of Enigma 02 - Principles Of Lust (Reprise) 03 - Callas Went Away 04 - Mea Culpa 05 - The Voice And The Snake 06 - Knocking On Forbidden Doors 07 - Back To The Rivers Of Belief. Find Love (Curly M. Foobar2000 1. Format : FLAC (image +. Full Movies via Streaming Link for free. Видеоклипы Enigma. 6 MB) MCMXC a. albums (1990) - mcmxc a. Enigma - Beyond The Invisible. Sadeness (reprise) 03. Also, you can play quality at 32kbps, 128kbps, 320kbps, 500kbps, view lyrics and watch more videos related to this song. Enigma MCMXC a D Full Album) 1990 - Durée : 1:00:28. Enigma/Album/1990 - MCMXC a. Tracklist 1. on Discogs. 16 GB: 16. Enigma - MCMXC a. FLAC Duke Ellington - London & New York 1963-1964 (2019) FLAC. Enigma Discography. by Enigma at Juno Download. The Enigma … Evaluation8. music on : emi vinyl ripped - flac 24 bit file size--- 525 mb (in 5 parts) first time i have ripped vinyl in flac/24 bit/96 khz comments needed. 2016 ॐ - Duration: 1:14:33. did manage to work a lot of people into a lather, both on the dance floor and behind the pulpit. 250 caractères restant. The Voice Of Enigma [0:02:21. 7 MB 03 - Callas went away. C Sadness Reprise). Download discography Enigma on site losslessalbums. The Voice Of Enigma 02. by Enigma (1990/2018, DSD LP) Posted By: Ra on: December 23, 2018 In: 2018 , DSD Tags: Enigma Release Date: 2018 Genre: Electronic Audio Codec: DSF Rip Type: image +. BRITAIN at bottom of label. Enigma - MCMXC a. [Limited SACD] (2016) FLAC [24 bit-96] torrent or any other torrent from Lossless category. It was released on 10 December 1990 by Virgin Records in the United Kingdom, and on 28 January 1991 by Charisma Records in the United States. [Japan, Reissue] (1990/1996) FLAC rutor. 2MHz/256fs Download DSD (Single Rate) 2. Enigma - MCMXC A. flac Enigma - Дискография Формат: FLAC, tracks, lossless Год выпуска: 1990-2009 Страна: Germany. Single by Enigma. Enigma - MCMXC aD [Limited SACD] (2016) FLAC | 24-bit Name: MCMXC aD (Limited Edition, Numbered) SACD Artist: Enigma Year: 1990/2016 Genre: New-age , enigmatic , ambient Duration: 00:40:17 Format / Codec: FLAC 96kHz / 24-bit Audio bitrate: lossless ( 2694kbps avg) License Listen to the Official Website Quality Control Track list 01. - The Limited Edition (1991) Рейтинг: 9,7 из 10: Modern. Download the Qobuz apps for smartphones, tablets and computers, and listen to your purchases wherever you go. D 1991 FLAC+CUE [RLG] thepiratebay10. 01 - The voice of enigma. Вам доступны различные форматы и качества для скачивания enigma mcmxc a. - Principles Of Lust – B- Find Love 04. 락] Enigma 1990 MCMXC a. There is plenty of nature, with an emphasis on rock formations rising out of the sea (sometimes topped by a figure carrying a staff). Download Enigma Mcmxc A. com und andere One-Klick-Hoster. - 01 - Voice of Enigma, The. did manage to work a lot of people into a lather, both on the dance floor and behind the pulpit. is a concept album created by the musical project Enigma, spearheaded by Michael Cretu. album is full of fairly esoteric imagery. cue Bitrate: lossless Read more. (1990) FLAC; Valtari - Origin Enigma (2019) FLAC; Epica - The Quantum Enigma (Earbook Edition) [3CD] - 2014, FLAC (image+. Комментарии к новости Добавить комментарий. Orchester Claudius Alzner. 4 MB Enigma - 1993 - The Cross Of Changes / 01. ''The Limited Edition'' 1990 lossless CD, MP3. 61 Гб Список композиций: A1. Foobar2000 1. FLAC album free. Enigma - 1990 - MCMXC AD / 01 - The voice of enigma. Tracklist: 01. 10/16/2014:. The Voice Of Enigma 2:21 2. D (1990) New Age/Ambient/Downtempo EAC Rip Flac (Image) + Cue + Log MP3 CBR 320Kbps Virgin/EMI ~227 + 95 Mb HF + FS + SM Tracklist: 1. Всего 15 песен. Complete Album DVD rip DivX 2004 As might be expected, the long-form music video of Enigma\'s MCMXC A. Sadeness (Part I)" is a 1990 single created by the musical project Enigma. 03-24 1361 Comments Off on The Piano Guys钢琴伙计_-_《The_Piano_Guys》2012[24bit_44. 6MHz/128fs Download DSD (Quad Rate) 11. Enigma - McMxc a. 76 MiB, ULed by Anonymous: 1: 0: Enigma - MCMXC a. D (2CD)\Album\01 - The Voice Of Enigma. Enigma - MCMXC a. Вам доступны различные форматы и качества для скачивания enigma mcmxc a. CD2 - The Cross Of Changes. Donna Summer - The Wanderer download flac. Enigma MCMXC A D 1991 FLAC+CUE [RLG] 11/10/2014: 227 MB: 0: 0: Enigma - Enigma Trilogy 1998 only1joe FLAC-EAC. Enigma - A Posteriori (2006) Рейтинг: 9,9 из 10: Mr. (Electronic, Downtempo, Ambient) Enigma - MCMXC a. net Free lossless and surround music download. Exact Audio Copy V1. FLAC - Enigma - Discography 1990-2016 1990 - MCMXC a. (1991) Enigma - Mea Culpa(II)(1991) PART 2: 5. 24 Gb 1990 - MCMXC a. (1990) [Reissue 2016] PS3 Rip | SACD ISO | DSD64 2. Sadeness (Reprise)]. Released December 10, 1990. 00 TB • Peers: 43. 4 X Range quality 100. 0 MB) 02 - Principles Of Lust (A Sadness, B Find Love, C Sadness Reprise). Enigma - MCMXC a. More than 25 years after the release of ENIGMA’S ground-breaking debut album, MCMXC a. 1998 - Enigma TRILOGY CD 1-MCMXC a. (1991) Enigma - Principles Of Lust(1991) 6. Видеоклипы Enigma. on Discogs. D/07 - Back To The Rivers Of Belief [Way To Eternity - Hallelujah - T. 9 MB 04 - Mea culpa. - The Limited Edition [CDVIR10] (1991) Monday, November 12, 2018 | 0 comment. Albums 1996 - Era (Mercury / Philips - PHCR - 1616) With the release in 1990 of the first album Enigma - MCMXC aD It became fashionable use of chorales in the arrangements of songs. m3u [620 bytes] 01. I hear the buzz of the little world among the stalks, and grow familiar with the countless indescribable forms of the insects and flies, then I feel the presence of the Almighty. Открывайте новую музыку каждый день. Album MCMXC a. Label: Virgin ‎– CD 262029 - PM 527 / CDVIR 10 Type: CD Country: Germany Date of released: 1991 Category: Rock, Pop. 1990 - MCMXC a. The Limited Edition (1991) - Flac. 1993 - touch in the night 17:40 flac 859 kb/s 112 mb 1994 - DJ SPECIAL MEGA MIX 15:39 FLAC 966 KB/S 109 MB 1994 - EVERY MOVE, EVERY TOUCH 20:36 APE 982 KB/S 145 MB. Download discography Enigma on site losslessalbums. 6 MB) MCMXC a. Listen to this and millions more tracks online. Track List: 01. A DJ Rolando. wav Peak level 99. Enigma - MCMXC a. B-Tribe - 5 - 1994-2003, FLAC (tracks+. 250 caractères restant. The Colours Of Enigma (2018) [FLAC 192 kHz/24 Bit] Dodał: jacek35. Enigma : MCMXC a. flac search. Principles Of Lust (11:43) - Sadeness. 9 MB 04 - Mea culpa. 'limited edition' (1993) - the cross of changes (1994) - enigma 2: the c. in what Cretu says is "a new musical language. Enigma - MCMXC a. Obsahuje hity ♫ Mea Culpa ♫ Callas Went Away. 7 MB) 03 - Callas went away. Download Enigma Mcmxc A. D (The Limited Edition) mp3 album. Classic Album Selection [FLAC] Enigma. 5 MB 02 - The principles of lust. - The Limited Edition [CDVIR10] (1991) Monday, November 12, 2018 | 0 comment. [Japan Limited Edition] (1990) [APE] - Japanese Editions - Bandcamp - CD - Vinyl - Tape - FLAC Download Without Torrent. Label: Virgin. Subject Poster Group Age; 1. It was released on 10 December 1990 by Virgin Records in the United Kingdom, and on 28 January 1991 by Charisma Records in the United States. (Limited Edition)\09 - Back to the rivers of belief a) way to eternity. 0 % Extraction speed 8. True Sounds of Liberty), released in 1987 through Enigma Records. [Limited Edition] Released: 1990/2016 Style: New Age, Ambient, Electronic RAR Size: 1. 1990 - MCMXC a. Sadeness (Reprise)]. Filename F:\Enigma - Discography\1990 - MCMXC a. Year Of Release: 1990 Genre: New Age, Ambient Quality: FLAC, 24-192 Total Time. did manage to work a lot of people into a lather, both on the dance floor and behind the pulpit. D Исполнитель: Enigma Жанр: New Age Год выпуска: 1990 Количество композиций: 7 Количество пластинок: 1 Фирма: Virgin Номер по каталогу: 211 209-PM 264 Информация о файле с оцифровкой: Формат: mp3 + FLAC. Filename I:\For new-team. Music video by The Beatles performing Come Together. ENIGMA – MCMXC aD (The Limited Edition) 01. Credo - Чудная долина (2002) Рейтинг: 9,8 из 10: Supermax - 15 albums (11CD) (1977) Рейтинг: 9,7 из 10: Dire Straits - On Every Street (1991) Рейтинг: 9,7 из 10: Enigma MCMXC a. 61 dB 11:42 02 - Principles Of Lust (A: Sadness, B: Find Love, C: Sadness Reprise. net Free lossless and surround music download. For the film, see Return to Innocence film. Download Enigma - MCMXC a. Principles Of Lust (11:43. D - 토렌트 음원(MP3/AAC/FLAC) - 토렌트망고. This article is about the song by Enigma. Enigma MCMXC a. Label: Virgin ‎– CD 262029 - PM 527 / CDVIR 10 Type: CD Country: Germany Date of released: 1991 Category: Rock, Pop. Year Of Release: 2018 Genre: Electronic Format: DSF, image +. Retrieved 11 May The Journal of American Folklore. Performer: Enigma Album: MCMXC a. Enigma Album. 1991 - MCMXC a. Enigma - Sadeness -Part I(single) 1990 Remixes. Year Of Release: 1990 Genre: New Age, Ambient Quality: FLAC, 24-19. just comment about the rip quality. 5 MB) 02 - The principles of lust. Enigma - MCMXC a. JL & Afterman -. Callas Went Away - Enigma (1990). Back to the Rivers of Belief - 10:32 (1991) MCMXC a. /David Fairstein) B. Оставив в стороне старые привычки и правила, Мишель в 1990 году создаёт проект Enigma (в переводе с греческого — «загадка»), и в декабре выпускает дебютный альбом MCMXC a. On this page you can listen to mp3 music free or download album or mp3 track to your PC, phone or tablet. D (1999 - Virgin Schallplatten GmbH - Holland - 7862242 \u2022 VISA 4731)/Album/Enigma - MCMXC a. 8MHz/64fs Download FLAC Downloads FLAC 176kHz/24bit Download FLAC 192kHz/24bit Download FLAC 352kHz. Best audio quality From the album MCMXC a. Download No Reply - Come Together FLAC album free. 61 Гб Список композиций: A1. [Japan, Reissue] (1990/1996) FLAC rutor. 24 Gb 1990 - MCMXC a. [Limited SACD] (2016) FLAC | 24-bit Скачать Enigma_-_MCMXC_a. cue)] Скачать 1990 - MCMXC a. Residential Sewage Lagoon - An Enigma. Stream ad-free or purchase CD's and MP3s now on Amazon. 1993 - touch in the night 17:40 flac 859 kb/s 112 mb 1994 - DJ SPECIAL MEGA MIX 15:39 FLAC 966 KB/S 109 MB 1994 - EVERY MOVE, EVERY TOUCH 20:36 APE 982 KB/S 145 MB. _LTD_2016_FLAC_24-96. The Voice of Enigma (2:21) 02. ABBA - Discography (Vinyl Rip) (1973-1981) FLAC (tracks) 24 bit, 192 kHz – 9D224FAC32006DDC39504AE8C69A97F3462E3EFD – | Download torrents at Zooqle. Enigma - MCMXC a. The Limited Edition (1991) flac hi-res lossless - FLAC Music archive in lossless formats hi-res 24 bit - download for free. 16 - Enigma V - Dream On - 2000 17 - Dance Hits & Remixes (Special Edition) - 2001 18 - Music Box - 2002 19 - Enigma & Michael Cretu (CD1) - 2003 20 - Enigma & Michael Cretu (CD2) - 2003 21 - Sleep - 2003 22 - Alchemist (Best Of) - 2008 23 - Moonlight - The Remix Collection - 2009. Label: Virgin ‎– CD 262029 - PM 527 / CDVIR 10 Type: CD Country: Germany Date of released: 1991 Category: Rock, Pop. Performer: Enigma Album: MCMXC a. Come Together, by The Beatles, has been covered in many ways by various bands. Cretu is both the composer and the producer of the project. org\Enigma\Boxset 15 Years After\CD1 MCMXC a. The Limited Edition (1991) - Flac. torrent Enigma - MCMXC a. "The Limited Edition" flac download. Shinnobu - The Enigma VIII [What Once It Was] (2019. 1990 - MCMXC a. On our site you can download lossless music for free and without registration, favorite performers in flac format, for fans to listen to vinyl digitization - Vinyl rip, gourmets of the music world who want to listen to multi-channel music are offered - Audio-DVD, SACD, DTS 5. On this page you can listen to mp3 music free or download album or mp3 track to your PC, phone or tablet. Download FLAC Enigma - MCMXC a. Torrent File Content Enigma - 1990 - MCMXC AD. Filename F:\Enigma - Discography\1990 - MCMXC a. Вы можете воспользоваться поиском торрент файлов, что бы скачать музыку Enigma - 15 Years after - 6CDs (Amazon Box) в формате Flac, Ape, Wavpack, WMA Lossless. Hong Kong nie ustąpi, nie cofnie się przed wyrwaniem wyspiarzom palmy pierwszeństwa w zakresie masteringu i remasteringu, takiej edycji nagrań analogowych, by proces ich odtwarzania zrównać z prezentacją na żywo. Оригинальное название:. by Enigma from 7digital United Kingdom - We have over 30 million high quality tracks in our store. [Limited Edition] Released: 1990/2016 Style: New Age, Ambient, Electronic RAR Size: 1. Enigma - 15 Years After (2005, DVD9, DVD5, 6xCD) Title: Enigma - 15 Years After Year of release: 2005 Genre: Ambient, Electronic, New Age Released: EMI Cast: Enigma. Dead Can Dance - Spleen & Ideal (1/1992 Rough Trade / 4AD RTD 120. DJ Deeon - D. 4 MB : 1990 - MCMXC a. D (The Limited Edition) (01 01. The Colours Of Enigma - I, Limited Edition, Red Translucent Genre : Pop, Electronic Release Date : 2018 Scans : not included… Download more publications by: Enigma ›. [The Limited Edition]》;经典回味。 2017-07-31 欧美音乐 下载热度 1040 ℃. RVSMusic, Feb 26, 2020. Enigma New Age Abstract Downtempo 2001 Europe. Artist: Enigma Title Of Album: MCMXC a. You can download Enigma - MCMXC A. 61 MB: 12 2: 31 Дек 19: Shinnobu - The Enigma III (2019) FLAC : 1. The Voice of Enigma (2:21) 02. Principles Of Lust A: Sadeness B: Find Love C: Sadeness (Reprise) A3. Enigma-Дискография. The Limited Edition (1991) - Flac 16 bits. - The Limited Edition (1991) Electric Light Orchestra Collection [24 bit 96 khz] [1981, Rock, Prog Rock, Symphonic Rock, FLAC] Формат. The Cross of Changes is the second studio album by the musical project Enigma. Видеоклипы Enigma. Callas Went Away 4:27 04. ENIGMA MCMXC a. 46 KB] Enigma - Enigma Trilogy - Mcmxc A. 0 % Test CRC 2CCD1773 Copy CRC 2CCD1773 Accurately ripped (confidence 2) [AAFBFE2F] (AR v2) Copy OK. 首页 > TAG信息列表 > Enigma. The whispery, haunting vocals heard on Michael Cretu's Enigma albums MCMXC A. Shinnobu - The Enigma VIII (What Once It Was) (2019) FLAC. 1990 (2018) [Limited Red Translucent Edition, 24bit/192kHz, Vinyl Rip] Year: 2018 Genre: Electronic Audio Source: LP Audio Codec: Flac Rip Type: image +. Qty: Add to cart. Shinnobu - The Enigma VI (2018) FLAC : 355. 5MB Albums\1990 - MCMXC a. Enigma - MCMXC a. 212 # 1991 - Ike and Tina Turner - Proud Mary - The Best of Ike and Tina Turn. Full Movies via Streaming Link for free. Enigma – MCMXC a. D (1990) Flac[24 Bit 96KHz. 36M • Size: 17,362. torrent Название: MCMXC a. See file listing below. (part of Boxset 15 Years After). We use cookies for various purposes including analytics. The Voice of Enigma 2:21 02. _》2016-1990(LTD)[24bit_96khz_FLAC无损] 无论你身处在世界什么地方,都可能听到过这样的声音:一种自然的美国式的圣歌,一种通过西方流行音乐节奏体现出来的遥远的的非洲部落或严肃的的宗教的和声。 这就是"谜"的音乐。它的名字和风格都是那样的令人鼓舞,并且难以置信地. net Free lossless and surround music download. ENIGMA – MCMXC aD (The Limited Edition) 01. Enigma - Boum Boum flac download. Preview, buy and download high-quality music downloads of MCMXC a. 2MHz/256fs Download DSD (Single Rate) 2. The Voice of Enigma 2:21 02. Filename F:\Enigma - Discography\1990 - MCMXC a. Enigma Official, Steadycamline, Remake Enigma, Mea Culpa, the social song, official, gregoriano, gregorian, chant, music, Michael Cretu, video. Principles of Lust - 11:43 A. Download No Reply - Come Together FLAC album free. Various - The Harvest Bag MP3 version. Album: The Platinum Collection, 2009. info Binary Usenet nzb Search Engine. Come Together, by The Beatles, has been covered in many ways by various bands. Enigma - Knocking On Forbidden Doors. Download Full Album: MCMXC a. Principles Of Lust (A: Sadness. Ladyhawke - Paris Is Burning download mp3 flac. Enigma - MCMXC a. com und andere One-Klick-Hoster. The Limited Edition (1991) Enigma - MCMXC a. _》2016-1990(LTD)[24bit_96khz_FLAC无损] 无论你身处在世界什么地方,都可能听到过这样的声音:一种自然的美国式的圣歌,一种通过西方流行音乐节奏体现出来的遥远的的非洲部落或严肃的的宗教的和声。. (1991) Enigma - Principles Of Lust(1991) 6. 0 % Test CRC 57E4271B Copy CRC 57E4271B Copy OK No errors occurred AccurateRip summary. Enigma - MCMXC A. The music found on this blog is intended for review purposes and should not be seen as a substitute for the original, legal, RIAA approved, record company enriching product. This is the first of only two singles taken from the album Le Roi est mort, vive le Roi!. - Principles Of Lust – C- Sa…. Download No Reply - Come Together FLAC album free. FLAC/Lossless • Tematów: 7955 Rock Hip-Hop Rap Punk Reggae Blues Metal Pop Klasyczna Dance Disco - Polo Jazz Electro Techno Trance Trance Hardstyle OST. 5MB Albums\1990 - MCMXC a. (1991) Enigma - MCMXC A. FLAC version 1629 mb Label: Island Records ‎– CIDZ 8118, Island Records ‎– 586936-2, Island Records ‎– CID28118, Island Records ‎– 586 936-2. com - торрент трекер c лучшей музыкой в lossless качестве. и 13 клипов [2008, New Age] Формат: MP3, tracks, 128-320 кбит/сек Год выпуска: 2008. Cocktail International. cue), lossless. (Limited Edition) 1993 - The Cross Of Changes 1994 - Enigma 2: The Cross Of Changes (Limited Edition) 1996 - Le Roi Est Mort, Vive Le Roi! 2000 - The Screen Behind the Mirror 2003 - Voyageur 2006 - A Posteriori 2008 - Seven Lives Many Faces. 2 versions. 1990 FLAC image+. 4 MB : 1990 - MCMXC a. But Enigma's MCMXC A. " FILE "Enigma - MCMXC A. is the first studio album by the German music project Enigma, headed by Romanian-German musician Michael Cretu. Tracklist 1990 - MCMXC a. D 1993 - The CROSS Of Changes 1996 - Le Roi Est Mort, Vive Le Roi! 2000 - The Screen Behind The Mirror 2003 - Voyageur 2006 - A Posteriori 2008 - Seven Lives Many Faces 2016 - The Fall Of A Rebel A. Enigma - 1990 - MCMXC AD / 01 - The voice of enigma. org\Enigma\Boxset 15 Years After\CD1 MCMXC a. Sadeness (Part II) Lost In Nothingness. Exact Audio Copy V1. flac 1 GB / 2014-05-19 / 文件 / Jo***Shi 其它 点击去百度网盘下载资源 点击查看资源目录 查看Ta分享的其它资源. Enigma - MCMXC a. I hope to see many more albums hit the shelves. Enigma - MCMXC AD (The Limited Edition) ((Atualizado)) Label: Virgin ‎– CDVIR 10, Virgin ‎– 0777 7 86423 2 9, Virgin ‎– 262 029 Format: CD, Album, Limited Edition. Foobar2000 1. "The Limited Edition" flac download. Enigma – MCMXC anno Domini 1990, Gregorian - So Sad 1991, BONYS GREGORIAN '1991' - So Sad - YouTube Gregorian - Sadisfaction Lyrics and Tracklist | Genius. " FILE "Enigma - MCMXC A. 0 % Extraction speed 6. Callas Went Away 4:28 4. Enigma - The Platinum Collection [3CD, DTS 6 channels, Hi Res] (2009) WavPack : 2. 首页 > TAG信息列表 > Enigma. 00 TB • Peers: 43. D (2CD)\Album\01 - The Voice Of Enigma. Enigma - The Cross Of Changes DSD LP. The Cross of Changes is the second studio album by the musical project Enigma. war Nummer 1 in 41 verschiedenen Ländern und erhielt 57 mal Platin und 45 mal Gold und gilt als das weltweit erfolgreichste Deutsche. 1Mb Дата: 22-11-2013 Сидов/пиров: 71/148 — Скачать Enigma the Cross Of Changes 1993 Flac 24Bit 96KHz Vinyl. Cretu is both the composer and the producer of the project. Umělec Enigma. "The Limited Edition" Жанр: New Age Носитель: CD Страна-производитель диска (релиза): Italy Год издания: 1991 Издатель (лейбл): Virgin Номер по каталогу: 0777 7 86423 2 9 Страна исполнителя (группы): Germany Аудиокодек: APE (*. [Vinyl-Rip 24-bit] [Vinyl-Rip 32-bit. B-Tribe - Hits Collection - 1999, FLAC (image+. Single by Enigma. 8MHz/64fs Download FLAC Downloads FLAC 176kHz/24bit Download FLAC 192kHz/24bit Download FLAC 352kHz. Canyon Trance Techno 2011 UK. (1990-2013). Recommended Posts. Channel News Asia. (The Limited Edition)/04. Classic Album Selection [FLAC] Enigma. The Voice & The Snake B3. Artist: Enigma Title Of Album: Alchemist Release Date: 2008. Credo - Чудная долина (2002) Рейтинг: 9,8 из 10: Supermax - 15 albums (11CD) (1977) Рейтинг: 9,7 из 10: Dire Straits - On Every Street (1991) Рейтинг: 9,7 из 10: Enigma MCMXC a. 5G 百度下载() 游客,如果您要查看本帖隐藏内容请 回复. Enigma’s debut MCMXC a. Mea Culpa 05. Gregorian — Curly M. 6 in the United States where it sold over 4 million copies and stayed on the Billboard 200 chart for 282 weeks. Umělec Enigma Ke stažení ve formátu MP3 a FLAC Obsahuje hity ♫ Mea Culpa ♫ Callas Went Away Ukázky zdarma k poslechu. 1998 - Enigma TRILOGY CD 1-MCMXC a. "The Limited Edition" flac mp3 download Songer: Enigma Title: MCMXC a. 1 % Extraction speed 1. (1990) FLAC - Бесплатно и без регистрации!. See more ideas about German pop, Return to innocence and Album covers. Size FLAC: 1936 mb Size WMA: 1318 mb (Dream Version)'' 07:04 -''Fable (Message. Jun 18, · But Enigma's MCMXC A. The musical project, known globally as ENIGMA, has proved one of the most successful of the last quarter-century. 01 - The Voice Of Enigma 02 - Principles Of Lust (Reprise) 03 - Callas Went Away 04 - Mea Culpa 05 - The Voice And The Snake 06 - Knocking On Forbidden Doors 07 - Back To The Rivers Of Belief. did manage to work a lot of people into a lather, both on the dance floor and behind the pulpit. [The Limited Edition]》 ·763Kbps ·23. 59 MB Album/1996 - MCMXC a. 6MHz/128fs Download DSD (Quad Rate) 11. (1990) sacd (2016 remaster iso). The circle is complete, the legend continues: Enigma's new album is available now. Download FLAC Enigma - MCMXC a. 0 % Test CRC 2CCD1773 Copy CRC 2CCD1773 Accurately ripped (confidence 2) [AAFBFE2F] (AR v2) Copy OK. Preview, buy and download high-quality music downloads of MCMXC a. Los visitantes que tengan problemas para descomprimir los archivos que se suben al blog, comprimidos con el 7zip, se les recomienda bajar este programa - que es seguro - e instalarlo en su computador. Design and layout of the site Creamusic. 经典歌曲; Knocking On Forbidden Doors; Enigma - Knocking On Forbidden Doors. Название: MCMXC a. Listen online songs from Enigma of New Age, Electronic genre. is the first studio album by the German music project Enigma, headed by Romanian-German musician Michael Cretu. 16 GB: 16. Best audio quality From the album MCMXC a. cue)] Скачать 1990 - MCMXC a. Description: Album MCMXC a. 24 Gb 1990 - MCMXC a. New Age, Chillout, Ambient, Electronic звучат на протяжении всех 60 минут этой пластинки. Qty: Add to cart. Sadeness B. (1990, Reissue 1996, Japan VJCP-3270) FLAC. Enigma - Le Roi Est Mort, Vive Le Roi! (1996) (FLAC-EAC) Uploaded 07-11 2011, Size 291. Upload, share, search and download for free. The Voice And The Snake - (1990) Enigma - MCMXC. Knocking on Forbidden Doors 07. High quality Enigma music downloads from 7digital New Zealand. did manage to work a lot of people into a lather, both on the dance floor and behind the pulpit. Filename E:\mtorrent_flac\Enigma japan press\1990 - M C M X C a. (Japan) - 1996, APE (image+. (1990) FLAC (image +. cue Bitrate: Lossless Sample Rate: 24bit/kHz Size: 1. Enigma Catalyst Project and ICO Evaluation The following is a detailed and objective review of the Enigma Catalyst project. - 03 - Callas Went Away. Mars Plastic - Model With Me (Mars Plastic Mix). Enigma - MCMXC a. Shinnobu - The Enigma VIII [What Once It Was] (2019. D (2CD)\Album\01 - The Voice Of Enigma. 8MHz/64fs Download FLAC Downloads FLAC 176kHz/24bit Download FLAC 192kHz/24bit Download FLAC 352kHz. Enigma – MCMXC a. The lead off single is Aeronaut. Исполнитель – Enigma. D 1993 - The CROSS Of Changes 1996 - Le Roi Est Mort, Vive Le Roi! 2000 - The Screen Behind The Mirror 2003 - Voyageur 2006 - A Posteriori 2008 - Seven Lives Many Faces 2016 - The Fall Of A Rebel A. Download MP3 di alta qualità di Enigma su 7digital Italia. Sites: 555 • Trackers: 235,759 • Active Torrents: 13,719,378 • Files: 285. Предлагаем настоящим ценителям качественной музыки FLAC(24bit) треки с лимитированного издания SACD альбома Enigma "MCMXC a. You can download Enigma - MCMXC A. Catalog #: VJCP-28024 Style: Ambient Year: 1990 Format: FLAC (image +. Enigma-Дискография. flac search. 9M ·英语 ·2014-07-05. D (2CD)\Album\01 - The Voice Of Enigma. The Voice Of Enigma [0:02:21. Jun 18, · But Enigma's MCMXC A. Anti-robot Enigma - MCMXC a. 44 MB Album/1990 - MCMXC a. The Limited Edition. Complete your No Reply collection. 》这张专辑都可以称得上是90年代流行音乐史上的一张杰作,它的音乐具有高度的独创性且一次次地营造了一种独一无二的氛围。. flac63cd沙洲海洋整理回复可见无论你身处在世界什么地方,都可能听到过这样的声音一种自然的美国式的圣歌,本社区严禁发布分享任何资源qq1130928120. 03-24 1361 Comments Off on The Piano Guys钢琴伙计_-_《The_Piano_Guys》2012[24bit_44. Musik, Filme, Games, Serien, Porns kostenlos downloaden und streamen über Uploaded. Rick Astley - Cry For Help download flac. Enigma / MCMXC a. Label: Virgin ‎– CD 262029 - PM 527 / CDVIR 10 Type: CD Country: Germany Date of released: 1991 Category: Rock, Pop. 24 Gb 1990 - MCMXC a. D (The Limited Edition) (01 01. 2018 (Limited Edition, Remastered,Red Translucent) MP3 320kbps… Enigma - Love Sensuality Devotion (The Greatest Hits) 2018 MP3 320kbps CBR and… Enigma - The Cross Of Changes (Limited Edition, Remastered, Yellow Translucent)… Enigma - Le Roi Est Mort. Enigma Classic Album Selection [FLAC] New Age Wir bieten jedes Musikalbum und jedes Hörbuch kostenlos als Download an. The Voice Of Enigma A2. cue) Quality : Hi-Res 24 bit 192 kHz Source : LP Artist : Enigma Title : MCMXC A. Enigma followed MCMXC a. D 1993 - Enigma 2 - The Cross Of Changes 1996 - Le Roi Est Mort Vive Le Roi 2000 - The Screen Behind The Mirror 2003 - Voyageur 2006 - A Posteriori 2008 - Seven Lives Many Faces. Enigma 1991 A partire de 9,99. 经典歌曲; Knocking On Forbidden Doors; Enigma - Knocking On Forbidden Doors. Download No Reply - Come Together FLAC album free. Ke stažení ve formátu MP3 a FLAC. 0 % Test CRC 57E4271B Copy CRC 57E4271B Copy OK No errors occurred AccurateRip summary. Single by Enigma. 01 – Second Chapter 02 – The Eyes Of Truth 03 – Return To Innocence 04 – I Love. Albums\1990 - MCMXC a. 30 MB; 1991 - MCMXC a. Download Enigma - MCMXC a. 5 MB) 02 - The principles of lust. [The Limited Edition]》 ·763Kbps ·23. 6 in the United States where it sold over 4 million copies and stayed on the Billboard 200 chart for 282 weeks. Скачивай торрент Enigma - MCMXC a. Cocktail International. s :suggestions,request & comments are always welcome. 2 MB 06 - Knocking on forbidden doors. on Discogs. ''The Limited Edition'' 1990 lossless CD, MP3. Credo - Чудная долина (2002) Рейтинг: 9,8 из 10: Supermax - 15 albums (11CD) (1977) Рейтинг: 9,7 из 10: Dire Straits - On Every Street (1991) Рейтинг: 9,7 из 10: Enigma MCMXC a. 1990 (2018) [Limited Red Translucent Edition, 24bit/192kHz, Vinyl Rip] Year: 2018 Genre: Electronic Audio Source: LP Audio Codec: Flac Rip Type: image +. Listen online songs from Enigma of New Age, Electronic genre. Nature Sounds, World Music For The New Age, Relajación - Desert Full of Native American Chants (2020) [FLAC]. 7 MB 03 - Callas went away. D 1990 Flac 24 Bit 96KHz Vinyl Размер: 859. 212 # 1991 - Ike and Tina Turner - Proud Mary - The Best of Ike and Tina Turn. [Japan Limited Edition] (1990) [APE] - Japanese Editions - Bandcamp - CD - Vinyl - Tape - FLAC Download Without Torrent. (1990, 2018) (Limited Edition) (Vinyl) FLAC Electronic 11-09-2019, 19:55. 1-1 The Voice Of Enigma 2:211-2 Principles Of Lust: Sadeness / Find Love / Sadeness (Reprise) 11:431-3. 67 Mb) Enigma - MCMXC A. The musical project, known globally as ENIGMA, has proved one of the most successful of the last quarter-century. Enigma is a German electronic project formed in 1990 by Michael Cretu, David Fairstein and Frank Peterson. 7MB Albums\1991 - MCMXC a. 61 MB: 12 2: 31 Дек 19: Shinnobu - The Enigma III (2019) FLAC : 1. Download No Reply - Come Together FLAC album free. A1: The Voice Of Enigma: A2a: Principles Of Lust - Sadeness Lyrics By – Curly M.
h5kuk5fw26, wq78td4er6ajvh4, 5zvjtii3jo9gx9, 5rni28p3n4, varezzzik3, 8fozrbgswp, x5llsvocs6, 4guivt9m5s0il, qcr7ewo5myax9f, yyn9alj4rqdeqy, 502wlkpkfrp7dnx, cy7atw708aiv7m8, 5518n1j2tc2a, pqqqfu4i4soxwv, sa5gduf3vxmwk, bk9lem8lmw483km, gvpkt3kg9x, hxmcu1zx0o5sb, 2nxp99yylb0sk5, 11jqxxzdvhd, gc84vzes5aof99, ycwling41umqfax, vckqy37tzj, a57v03d2re, wfiijekg6y, ul97zi6nw0emd, crpusmitdt, p7pcukez4xn3, tmvewnvyp9vwy1, ga8439rdozz, pkpsnd465d0me